[center][img]https://pics.filmaffinity.com/hereditary-551635712-mmed.jpg[/img]

[img]https://fotos.subefotos.com/4001ed1fb97b97f9d603fc67bf7aca86o.png[/img]

Tras la muerte de la matriarca de la familia Graham, Annie Graham tendrá que sobreponerse de la pérdida de una madre cuyos problemas mentales no la dieron una infancia muy agradable. Muy pronto, los miembros de la familia comenzarán a percatarse de que la presencia de la abuela sigue entre ellos. Sus sospechas cobrarán vida cuando el espíritu se manifieste a través de su nieta pequeña y más tarde comenzará también a provocar señales en el hijo mayor de Annie.

[img]https://fotos.subefotos.com/a08d99578407bb6d8c5d8db03a842144o.png[/img]

https://www.youtube.com/watch?v=CB-1JtJyOAk

[img]https://fotos.subefotos.com/a5b23d5e1e6cbe1b8b59b9d555a4bbc7o.png[/img]

Título original: Hereditaryaka
Año: 2018
Duración: 126 min.
País: Estados Unidos Estados Unidos
Dirección: Ari Aster
Guion: Ari Aster
Música: Colin Stetson
Fotografía: Pawel Pogorzelski
Reparto: Toni Collette, Gabriel Byrne, Alex Wolff, Milly Shapiro, Ann Dowd
Productora: PalmStar Entertainment / Windy Hill Pictures. Distribuida por A24
Género: Terror | Casas encantadas. Fantasmas. Sobrenatural. Cine independiente USA. Sectas

[img]https://fotos.subefotos.com/466ed64e9129779a06c941343e8baa56o.png[/img]

General
Complete name : Hereditary [BRScr][Latino].avi
Format : AVI
Format/Info : Audio Video Interleave
Format profile : OpenDML
File size : 2.04 GiB
Duration : 2 h 7 min
Overall bit rate : 2 295 kb/s
Writing application : Lavf53.32.100
Original source form/Name : Hereditary

Video
ID : 0
Format : AVC
Format/Info : Advanced Video Codec
Format profile : [email protected]
Format settings : CABAC / 2 Ref Frames
Format settings, CABAC : Yes
Format settings, RefFrames : 2 frames
Codec ID : H264
Duration : 2 h 7 min
Bit rate : 2 090 kb/s
Width : 720 pixels
Height : 368 pixels
Display aspect ratio : 1.957
Frame rate : 23.976 (24000/1001) FPS
Color space : YUV
Chroma subsampling : 4:2:0
Bit depth : 8 bits
Scan type : Progressive
Bits/(Pixel*Frame) : 0.329
Stream size : 1.86 GiB (91%)
Writing library : x264 core
Color range : Limited
Color primaries : BT.601 NTSC
Transfer characteristics : BT.709
Matrix coefficients : BT.601

Audio
ID : 1
Format : MPEG Audio
Format version : Version 1
Format profile : Layer 3
Format settings : Joint stereo / MS Stereo
Mode : Joint stereo
Mode extension : MS Stereo
Codec ID : 55
Codec ID/Hint : MP3
Duration : 2 h 7 min
Bit rate mode : Constant
Bit rate : 192 kb/s
Channel(s) : 2 channels
Sampling rate : 48.0 kHz
Compression mode : Lossy
Stream size : 175 MiB (8%)
Alignment : Aligned on interleaves
Interleave, duration : 24 ms (0.58 video frame)
Writing library : LAME3.99.5

[img]https://fotos.subefotos.com/2cc620411698bac1e3b28b2ad074fb4fo.png[/img]

[img]https://fotos.subefotos.com/e4d1a7038db8ff4819d35c3abff47897o.jpg[/img]

[img]https://fotos.subefotos.com/8f316b67e8f3a1523baec7fc4c5eed67o.png[/img]

Uptobox | Uploaded | Openload | Mexashare | Up-4

http://binbox.io/aNHau#pt7PVLTh[/center]
Comparte este post
0
Url del post:
  • 1
    Logro
  • 0
    Seguidores
  • 65
    Visitas
  • 0
    Favoritos
  • 0
    Puntos

0 Comentarios

Cargando comentarios espera un momento...
Para poder comentar necesitas estar Registrado. O ya tienes usuario? Logueate!
Aspirante

Logros

Relacionados

Dog Days [2018]... Comedia romántica claramente destinada a los...
Dead Space... Basada en el videojuego Dead Space 2: Aftermath,...
After: Aquí... La joven Tessa Young cursa su primer año en la...
Set & Crush... MP4 | Video: AVC 1280x720 | Audio: AAC 44KHz 2ch |...
7 deseos [2017]... Claire, una adolescente de tan solo 16 años,...
Un asesino entre... La agente jubilada del FBI, Karen Ellison, es...
Crown Heights... Esta película sigue la historia de Colin Warner,...
Capitana Marvel... Todo empieza durante el año 1995, en el planeta...
Mi ex es un... Audrey y Morgan son dos amigas que se ven...
House Of Cards... En esta sexta temporada Frank ya no está, y...
Basado en tags.
RSS